<! DOCTYPE svg PUBLIC "-//W3C//DTD SVG 1.1//EN" "https://www.w3.org/Graphics/SVG/1.1/DTD/svg11.dtd">
<svg xmlns="https://www.w3.org/2000/svg">
<metadata>This is a custom SVG webfont generated by Font Squirrel. Copyright   : 2010</metadata>
<defs>
<font id="GliscorGothicRegular" horiz-adv-x="752">
<font-face units-per-em="2048" ascent="1631" descent="-417"/>
<missing-glyph horiz-adv-x="751"/>
<glyph unicode=" " horiz-adv-x="751"/>
<glyph unicode="	" horiz-adv-x="751"/>
<glyph unicode="?" horiz-adv-x="751"/>
<glyph unicode="!" horiz-adv-x="485" d="M157 1365h242l-73 -1022h-96zM180 0v195h195v-195h-195z"/>
<glyph unicode="&quot;" horiz-adv-x="786" d="M86 1365h242l-39 -546h-164zM459 1365h241l-39 -546h-163z"/>
<glyph unicode="#" horiz-adv-x="1242" d="M96 276l23 131h235l49 277h-235l23 131h235l49 277h131l-49 -277h224l49 277h131l-49 -277h235l-23 -131h-235l-49 -277h235l-23 -131h-235l-49 -276h-131l49 276h-224l-49 -276h-131l49 276h-235zM485 407h224l49 277h-224z"/>
<glyph unicode="$" horiz-adv-x="893" d="M96 337v54h195v-51q-1 -82 58 -130q21 -17 49 -26v433l-195 210q-88 96 -88 225q0 137 94 231q80 80 189 97v149h96v-147q102 -16 174 -84q104 -100 110 -242h-190q-18 96 -94 125v-381l215 -235q90 -98 90 -235q0 -191 -164 -294q-65 -41 -141 -53v-147h-96v149 q-100 14 -187 89q-114 98 -115 263zM310 1053q0 -53 38 -94l50 -55v276q-88 -38 -88 -127zM494 182q16 5 29 12q81 45 81 141q0 59 -40 103l-70 75v-331z"/>
<glyph unicode="%" horiz-adv-x="759" d="M86 0l462 1365h123l-457 -1365h-128zM86 1122v103q0 52 31 94q44 58 116 58q79 0 123 -69q23 -36 23 -83v-103q0 -55 -23 -87q-44 -59 -121 -59q-37 0 -72.5 17.5t-53.5 44.5q-23 35 -23 84zM183 1117q0 -18 15 -31t35 -13q49 0 49 60v93q0 24 -13 38.5t-36 14.5 q-49 0 -49 -54v-92q0 -2 -1 -8v-8zM379 134v92q0 52 31 94q44 58 116 58q80 0 124 -69q23 -36 23 -83v-92q0 -56 -23 -87q-44 -59 -123 -59q-88 0 -130 73q-18 32 -18 73zM476 117q0 -17 15 -30t35 -13q50 0 50 60v92q0 25 -13.5 40t-35.5 15q-50 0 -50 -55v-92z"/>
<glyph unicode="&amp;" horiz-adv-x="1018" d="M54 338q0 169 96 281q14 16 163 139q-47 74 -74 121q-54 98 -54 195q0 148 88 234q80 77 200 77q106 0 178 -67q87 -80 87 -219q0 -153 -97 -262q-37 -41 -109 -89l170 -286q52 102 71 226h165q-27 -180 -69 -275q-18 -41 -61 -115l181 -298h-202l-85 141 q-60 -74 -119 -111q-83 -51 -188 -51q-173 0 -267 123q-74 97 -74 236zM250 357q0 -92 33 -150q48 -84 129 -84q69 0 124 55q38 37 76 99l-214 342q-148 -106 -148 -262zM356 1100q0 -51 42 -129l60 -112q52 33 80 72q34 51 34 137q0 58 -16 107q-25 73 -86 73 q-58 0 -90 -56q-24 -40 -24 -92z"/>
<glyph unicode="'" horiz-adv-x="414" d="M86 1365h242l-39 -546h-164z"/>
<glyph unicode="(" horiz-adv-x="501" d="M87 695q0 415 217 769h66q-88 -344 -88 -749q0 -433 103 -810h-66q-112 167 -172 372.5t-60 417.5z"/>
<glyph unicode=")" horiz-adv-x="501" d="M115 -95q104 379 104 810q0 402 -89 749h66q218 -357 218 -769q0 -341 -149 -646q-33 -69 -83 -144h-67z"/>
<glyph unicode="*" horiz-adv-x="870" d="M224 1079l25 129l187 -41v198h136v-198l183 41l28 -129l-179 -40l117 -159l-100 -88l-115 157l-116 -157l-105 88l119 159z"/>
<glyph unicode="+" horiz-adv-x="1524" d="M250 601v164h430v430h164v-430h430v-164h-430v-430h-164v430h-430z"/>
<glyph unicode="," horiz-adv-x="380" d="M102 175h175v-175l-175 -257v432z"/>
<glyph unicode="-" horiz-adv-x="958" d="M216 553v179h527v-179h-527z"/>
<glyph unicode="." horiz-adv-x="380" d="M102 0v176h176v-176h-176z"/>
<glyph unicode="/" horiz-adv-x="542" d="M71 0l265 1365h134l-264 -1365h-135z"/>
<glyph unicode="0" horiz-adv-x="953" d="M126 1029q0 109 54 193q49 75 133 119q81 44 169 44q131 0 230 -87q116 -103 116 -269v-694q0 -123 -69 -216q-104 -139 -283 -139q-160 0 -265 119q-85 97 -85 236v694zM321 315q0 -52 34 -96q47 -63 124 -63q89 0 133 80q21 39 21 99v715q0 44 -26 88q-43 71 -128 71 q-86 0 -134 -72q-24 -36 -24 -87v-735z"/>
<glyph unicode="1" horiz-adv-x="853" d="M186 1080l285 285h195v-1365h-195v1110l-157 -158z"/>
<glyph unicode="2" horiz-adv-x="870" d="M83 1012v26q0 115 68 206q48 65 122.5 103t154.5 38q77 0 147 -35t118 -97q72 -94 72 -213q0 -89 -48 -173l-392 -691h460v-176h-682v176l446 799q24 42 24 92q0 55 -35 95q-43 48 -106 48q-93 0 -135 -88q-19 -41 -19 -84v-26h-195z"/>
<glyph unicode="3" horiz-adv-x="863" d="M64 324v64h195v-64q0 -55 29 -100q44 -68 127 -68q92 0 134 81q22 42 22 87v142q0 58 -38 102q-46 53 -118 53h-79v176h81h3q48 0 85 31q46 40 46 102v141q0 57 -37 95q-41 44 -99 44q-71 0 -114 -61q-23 -34 -23 -78v-57h-194v33q0 109 56 191q47 69 119.5 108t154.5 39 q76 0 145 -33.5t116 -93.5q71 -90 71 -211v-117q0 -73 -38 -141q-29 -50 -78 -85q52 -26 90 -79q46 -68 46 -155v-146q0 -120 -86 -219q-107 -125 -271 -125q-165 0 -273 137q-72 92 -72 207z"/>
<glyph unicode="4" horiz-adv-x="873" d="M38 212v176l449 977h253v-977h89v-176h-89v-212h-195v212h-507zM251 388h294v638z"/>
<glyph unicode="5" horiz-adv-x="900" d="M102 339v50h195v-50q0 -69 28 -115q41 -68 131 -68q78 0 124 57q29 37 29 94v281q0 45 -26 81q-46 64 -130 64q-85 0 -124 -61h-195v693h643v-176h-448v-321q85 40 160 40q76 0 144.5 -33t111.5 -91q59 -78 59 -196v-249q0 -134 -70 -222q-52 -65 -125.5 -101t-153.5 -36 q-81 0 -155 36.5t-126 101.5q-72 91 -72 221z"/>
<glyph unicode="6" horiz-adv-x="925" d="M112 358v159v7q0 74 19 145q22 88 60 155l274 562h199l-282 -588q36 8 76 8h5q169 0 276 -127q75 -89 75 -205v-116q0 -135 -83 -232q-107 -126 -269 -126q-132 0 -230 83q-120 100 -120 275zM307 335q0 -67 36 -110q45 -56 118 -56q78 0 125 60q33 42 33 106v133 q0 51 -33 97q-45 64 -126 64q-89 0 -132 -76q-21 -36 -21 -85v-133z"/>
<glyph unicode="7" horiz-adv-x="842" d="M85 0l499 1189h-298v-89h-195v265h702v-176l-507 -1189h-201z"/>
<glyph unicode="8" horiz-adv-x="891" d="M90 335v128q0 93 60 172q38 49 86 70q-54 35 -85.5 95.5t-31.5 132.5v117q0 108 54 191q94 144 273 144q177 0 273 -146q55 -82 55 -189v-117v-8q0 -128 -118 -220q65 -33 100.5 -96t35.5 -146v-128q0 -122 -73 -218q-106 -137 -284 -137q-167 0 -268 126q-77 97 -77 229 zM285 307q0 -49 31 -89q22 -26 57.5 -44t68.5 -18q29 0 64 15t55 36q36 39 36 100v156q0 44 -29 84q-48 67 -126 67q-73 0 -121 -59q-36 -44 -36 -92v-156zM314 933q0 -47 32 -83q41 -47 101 -47q72 0 111 62q21 34 21 68v135q0 57 -38 98q-40 43 -96 43q-66 0 -106 -53 q-25 -34 -25 -88v-135z"/>
<glyph unicode="9" horiz-adv-x="925" d="M111 912v116q0 135 83 232q107 126 269 126q132 0 230 -83q120 -100 120 -275v-159v-7q0 -74 -19 -145q-22 -88 -60 -155l-274 -562h-199l282 588q-36 -8 -76 -8h-5q-169 0 -276 127q-75 89 -75 205zM306 918q0 -51 33 -97q45 -64 126 -64q89 0 132 76q21 36 21 85v133 q0 67 -36 110q-45 56 -118 56q-78 0 -125 -60q-33 -42 -33 -106v-133z"/>
<glyph unicode=":" horiz-adv-x="517" d="M239 0v176h176v-176h-176zM239 739v176h176v-176h-176z"/>
<glyph unicode=";" horiz-adv-x="517" d="M239 175h175v-175l-175 -257v432zM239 739v176h176v-176h-176z"/>
<glyph unicode="&lt;" horiz-adv-x="1024" d="M68 602v162l887 428v-188l-686 -321l686 -321v-189z"/>
<glyph unicode="=" horiz-adv-x="1524" d="M250 457v164h1024v-164h-1024zM250 744v164h1024v-164h-1024z"/>
<glyph unicode="&gt;" horiz-adv-x="1024" d="M69 173v189l686 321l-686 321v188l887 -428v-162z"/>
<glyph unicode="?" horiz-adv-x="717" d="M94 975v93q0 104 52 179q88 130 244 130q164 0 246 -144q40 -69 40 -141v-117q1 -102 -46 -184l-101 -177q-32 -53 -40 -81q-7 -25 -7 -83v-109h-198v109q0 79 10 124q14 57 52 119l103 166q33 53 33 127v106q0 38 -24 62q-30 28 -74 28q-96 0 -96 -114v-93h-194zM284 0 v194h198v-194h-198z"/>
<glyph unicode="@" horiz-adv-x="1493" d="M92 667q0 151 59.5 284t170.5 228q196 171 459 171q271 0 455 -182q164 -161 164 -383q0 -236 -184 -379q-126 -97 -252 -97q-51 0 -88.5 22t-56.5 64q-118 -90 -212 -90q-124 0 -198 100q-49 67 -49 168q0 163 115 301q125 150 278 150q126 0 194 -99l25 67h168 l-158 -483q-18 -58 -18 -72q0 -18 14.5 -31t34.5 -13q39 0 87 28.5t88 74.5q105 121 105 280q0 99 -44 191.5t-123 159.5q-145 124 -345 124q-126 0 -239 -50.5t-194 -143.5q-141 -163 -141 -388q0 -235 156 -402q169 -182 421 -182q198 0 365 138q66 55 110 126h122 q-54 -111 -151 -194q-202 -173 -452 -173q-160 0 -302.5 69.5t-239.5 194.5q-144 185 -144 421zM545 515q0 -48 19 -81q25 -45 76 -45q116 0 188 206l46 129q22 63 22 103q0 31 -13 55q-27 49 -79 49q-58 0 -112 -54q-83 -82 -127 -240q-20 -72 -20 -122z"/>
<glyph unicode="A" horiz-adv-x="877" d="M29 0l298 1365h222l299 -1365h-203l-38 155h-343l-34 -155h-201zM304 331h265l-134 624z"/>
<glyph unicode="B" horiz-adv-x="926" d="M112 0v1365h384q131 0 223 -88q95 -91 95 -227v-139q0 -88 -57 -161q-26 -31 -67 -57q54 -24 83 -54q62 -71 61 -178v-155q1 -146 -115 -239q-87 -67 -194 -67h-3h-410zM307 176h198q57 0 95.5 37t38.5 93v155q0 53 -32 91q-38 47 -95 47h-205v-423zM307 775h157 q80 0 123 53q32 39 32 83v139q0 54 -39 93q-45 46 -104 46h-169v-414z"/>
<glyph unicode="C" horiz-adv-x="888" d="M93 335v691q0 136 87 236q105 123 262 123q129 0 231 -87q123 -104 122 -272h-197v22q0 57 -36 103q-46 59 -119 59q-90 0 -135 -80q-20 -37 -20 -82v-731q0 -62 36 -105q47 -56 118 -56q47 0 85 26t57 70q13 30 14 83h197q0 -77 -21 -131q-36 -89 -106 -146 q-94 -78 -228 -78q-166 0 -266 123q-81 99 -81 232z"/>
<glyph unicode="D" horiz-adv-x="917" d="M112 0v1365h392q140 0 232 -101q79 -88 78 -212v-745q0 -123 -86 -213q-92 -94 -226 -94h-390zM307 176h177h3q58 0 99 43q33 38 33 88v745q0 64 -35.5 100.5t-97.5 36.5h-179v-1013z"/>
<glyph unicode="E" horiz-adv-x="809" d="M112 0v1365h644v-176h-449v-408h297v-176h-297v-429h449v-176h-644z"/>
<glyph unicode="F" horiz-adv-x="780" d="M112 0v1365h644v-176h-449v-412h295v-176h-295v-601h-195z"/>
<glyph unicode="G" horiz-adv-x="888" d="M93 344v702q0 136 94 233q101 106 256 106q189 0 291 -152q52 -77 61 -187h-195q-2 45 -16 74q-20 41 -59 65.5t-85 24.5q-83 0 -129 -72q-23 -36 -23 -93v-701q0 -68 18 -105t56.5 -60t83.5 -23q83 0 128 70q26 39 26 86v289h-156v176h351v-433q0 -138 -79 -234 q-108 -130 -278 -130q-87 0 -163 39.5t-124 108.5q-58 85 -58 216z"/>
<glyph unicode="H" horiz-adv-x="926" d="M112 0v1365h195v-590h312v590h195v-1365h-195v599h-312v-599h-195z"/>
<glyph unicode="I" horiz-adv-x="419" d="M112 0v1365h195v-1365h-195z"/>
<glyph unicode="J" horiz-adv-x="848" d="M44 316v17h199v-28q0 -58 33 -94q50 -55 121 -55q87 0 132 73q22 35 22 76v1060h195v-1032q0 -126 -80 -224q-106 -129 -273 -129q-188 0 -292 153q-57 85 -57 183z"/>
<glyph unicode="K" horiz-adv-x="831" d="M112 0v1365h195v-492l289 492h217l-391 -665l420 -700h-228l-307 530v-530h-195z"/>
<glyph unicode="L" horiz-adv-x="722" d="M112 0v1365h195v-1189h390v-176h-585z"/>
<glyph unicode="M" horiz-adv-x="1160" d="M112 0v1365h177l291 -867l294 867h174v-1365h-195v804l-273 -804l-292 757v-757h-176z"/>
<glyph unicode="N" horiz-adv-x="926" d="M112 0v1365h211l315 -894v894h176v-1365h-210l-316 871v-871h-176z"/>
<glyph unicode="O" horiz-adv-x="888" d="M93 333v700q0 138 87 235q104 117 263 117q179 0 283 -148q69 -99 69 -204v-700q0 -104 -59 -194q-105 -159 -296 -159q-170 0 -272 126q-75 93 -75 227zM288 308q0 -58 33 -97q46 -55 121 -55q86 0 132 67q26 39 26 85v745q0 65 -46 110q-47 46 -109 46q-87 0 -135 -74 q-22 -35 -22 -82v-745z"/>
<glyph unicode="P" horiz-adv-x="848" d="M112 1365h397h3q140 0 227 -95q75 -86 75 -220v-142q0 -56 -24 -114.5t-64 -98.5q-59 -60 -155 -84q-38 -9 -71 -9h-193v-602h-195v1365zM307 778h174q65 0 104 41q34 37 34 89v142q0 53 -28 90q-36 49 -106 49h-178v-411z"/>
<glyph unicode="Q" horiz-adv-x="888" d="M93 331v700q0 130 80 226q107 128 274 128q189 0 291 -153q57 -85 57 -201v-700q-6 -122 -54 -190l101 -101l-113 -113l-94 94q-67 -41 -193 -41q-162 0 -265 115q-59 65 -76 142q-8 37 -8 94zM288 332q0 -55 3 -70.5t18 -37.5q45 -68 135 -68q35 0 52 8l-94 94l105 105 l81 -81q13 19 12 49v720q0 61 -37 104q-46 54 -121 54q-93 0 -134 -77q-20 -36 -20 -81v-719z"/>
<glyph unicode="R" horiz-adv-x="876" d="M112 0v1365h412q54 0 113 -25.5t99 -66.5q86 -87 86 -223v-140q0 -47 -21 -104.5t-55 -102.5q-55 -72 -148 -99l244 -604h-215l-237 604h-83v-604h-195zM307 780h181q52 0 74 13q65 38 65 117v140q0 49 -28 88q-39 51 -97 51h-2h-193v-409z"/>
<glyph unicode="S" horiz-adv-x="862" d="M93 337v54h195v-51q0 -59 31 -102q46 -63 127 -63q69 0 115 52q39 45 39 108q0 60 -40 103l-360 389q-88 96 -88 225q0 158 121 256q96 77 214 77q160 0 259 -134q60 -80 68 -195v-57h-189v57q-3 51 -35 84q-41 50 -106 50q-61 0 -104 -49q-33 -38 -33 -88q0 -53 38 -94 l360 -394q90 -98 90 -235q0 -147 -101 -245q-109 -105 -247 -105q-113 0 -214 74q-140 102 -140 283z"/>
<glyph unicode="T" horiz-adv-x="760" d="M29 1189v176h702v-176h-257v-1189h-195v1189h-250z"/>
<glyph unicode="U" horiz-adv-x="907" d="M102 335v1030h195v-1041q0 -61 36 -109q45 -60 119 -60q87 0 131 76q26 44 26 93v1041h195v-1030q0 -104 -55 -194q-46 -75 -126 -118t-175 -43q-184 0 -286 149q-60 88 -60 206z"/>
<glyph unicode="V" horiz-adv-x="877" d="M29 1365h206l207 -973l206 973h200l-285 -1365h-241z"/>
<glyph unicode="W" horiz-adv-x="1208" d="M29 1365h202l143 -835l142 835h196l147 -835l141 835h179l-230 -1365h-198l-147 831l-141 -831h-193z"/>
<glyph unicode="X" horiz-adv-x="847" d="M14 0l308 717l-273 648h222l159 -390l167 390h212l-274 -648l298 -717h-213l-190 460l-191 -460h-225z"/>
<glyph unicode="Y" horiz-adv-x="814" d="M29 1365h205l175 -538l168 538h209l-280 -886v-479h-195v479z"/>
<glyph unicode="Z" horiz-adv-x="790" d="M34 0v176l462 1013h-439v176h660v-176l-460 -1013h479v-176h-702z"/>
<glyph unicode="[" horiz-adv-x="522" d="M112 -96v1557h298v-123h-117v-1311h117v-123h-298z"/>
<glyph unicode="\" horiz-adv-x="542" d="M71 1365h134l265 -1365h-136z"/>
<glyph unicode="]" horiz-adv-x="522" d="M112 27h117v1311h-117v123h298v-1557h-298v123z"/>
<glyph unicode="^" horiz-adv-x="1024" d="M58 757l348 613h213l347 -613h-175l-280 484l-279 -484h-174z"/>
<glyph unicode="_" horiz-adv-x="1024" d="M0 -141h1024v-120h-1024v120z"/>
<glyph unicode="`" horiz-adv-x="1024" d="M182 1369h172l247 -255h-162z"/>
<glyph unicode="a" horiz-adv-x="790" d="M82 265q0 129 89 209q74 66 176 90l165 48v108q0 45 -27 77q-35 42 -90 42q-64 0 -97 -56q-18 -31 -18 -63v-21h-176q6 102 51 170q40 59 103.5 92.5t134.5 33.5q146 0 239 -117q46 -58 54 -119q2 -14 2 -60v-699h-176v23q-64 -23 -153 -23q-110 0 -181 58 q-96 77 -96 207zM258 272q0 -56 33 -86t96 -30q68 0 100 40q25 32 25 74v175l-154 -50q-42 -13 -74 -46q-26 -31 -26 -77z"/>
<glyph unicode="b" horiz-adv-x="780" d="M112 0v1365h176v-435q84 65 169 65q120 0 188 -88q52 -68 52 -156v-523q0 -111 -74 -183q-67 -65 -167 -65q-94 0 -168 66v-46h-176zM288 256q0 -44 26 -77q33 -43 90 -43q54 0 89 40q28 33 28 80v467q0 49 -34 81q-36 35 -84 35q-57 0 -94 -45q-21 -26 -21 -71v-467z "/>
<glyph unicode="c" d="M83 280v421q0 108 66 188q87 106 222 106q111 0 197 -70q89 -74 100 -224h-181v21q0 49 -33 81q-35 36 -81 36q-60 0 -95 -53q-19 -29 -19 -64v-463q0 -54 28 -86q33 -37 84 -37q66 0 98 54q18 29 18 69v21h181q0 -65 -18 -110q-29 -73 -85 -122q-80 -68 -191 -68 q-74 0 -137.5 33t-102.5 92q-51 76 -51 175z"/>
<glyph unicode="d" horiz-adv-x="780" d="M83 228v523q0 88 52 156q68 88 188 88q85 0 169 -65v435h176v-1365h-176v46q-74 -66 -168 -66q-100 0 -167 65q-74 72 -74 183zM259 256q0 -47 28 -80q35 -40 89 -40q67 0 100 58q16 28 16 62v467q0 51 -30 80q-37 36 -85 36q-56 0 -93 -44q-25 -29 -25 -72v-467z"/>
<glyph unicode="e" d="M83 283v413q0 107 70 190q89 106 220 106q100 0 184 -62q111 -82 111 -234v-237h-409v-176q0 -68 31 -105q36 -42 89 -42q76 0 103 72q10 28 10 68v7h176q-2 -44 -4 -68q-10 -88 -87 -159q-83 -76 -202 -76q-148 0 -233 115q-59 80 -59 188zM259 615h233v101q0 39 -24 72 q-34 48 -91 48q-71 0 -105 -66q-13 -26 -13 -54v-101z"/>
<glyph unicode="f" horiz-adv-x="507" d="M82 813v156h88v203q0 61 44 126t132 67h2q87 0 159 -73l-77 -121q-15 27 -46 25q-39 -4 -38 -54v-173h125v-156h-125v-813h-176v813h-88z"/>
<glyph unicode="g" horiz-adv-x="780" d="M83 258v494q0 78 45 141q74 102 192 102q94 0 172 -67v47h176v-1083q0 -110 -51 -180q-41 -57 -105.5 -89.5t-135.5 -32.5q-115 0 -190 55q-76 56 -88 158h176q17 -57 90 -57h3q76 0 110 59q15 26 15 65v192q-77 -62 -163 -62q-116 0 -193 94q-39 48 -49 99q-4 22 -4 65z M259 289q0 -46 24 -81q34 -52 94 -52q63 0 96 60q19 34 19 73v427q0 48 -25 78q-37 45 -93 45q-65 0 -98 -56q-17 -30 -17 -67v-427z"/>
<glyph unicode="h" horiz-adv-x="800" d="M112 0v1365h176v-432q73 62 164 62q57 0 110 -27t86 -72q49 -66 49 -152v-744h-176v714q0 45 -30 82q-35 43 -89 43q-65 0 -98 -57q-16 -28 -16 -68v-714h-176z"/>
<glyph unicode="i" horiz-adv-x="399" d="M112 0v975h176v-975h-176zM120 1170v156h156v-156h-156z"/>
<glyph unicode="j" horiz-adv-x="399" d="M-68 -222q59 0 115 47q57 47 61 118v1036h174v-1035q-4 -137 -94 -234t-256 -100v168zM117 1170v156h156v-156h-156z"/>
<glyph unicode="k" horiz-adv-x="753" d="M112 0v1365h176v-730l241 340h196l-324 -463l324 -512h-196l-241 384v-384h-176z"/>
<glyph unicode="l" horiz-adv-x="355" d="M54 156v1209h176v-1158q1 -22 18 -37t42 -14h12v-156h-72q-77 0 -127 46q-49 47 -49 110z"/>
<glyph unicode="m" horiz-adv-x="1209" d="M112 975h176v-43q71 61 168 61q73 0 137 -41q43 -28 68 -72q80 115 210 115q122 0 186 -94q50 -73 50 -150v-751h-176v723q0 41 -24 71q-36 45 -92 45q-63 0 -99 -53q-18 -27 -18 -63v-723h-176v723q0 45 -33 78q-35 36 -84 36q-59 0 -96 -47q-21 -27 -21 -67v-723h-176 v975z"/>
<glyph unicode="n" horiz-adv-x="800" d="M112 975h176v-44q76 64 164 64q116 0 188 -87q57 -70 57 -156v-752h-176v721q0 45 -25 75q-35 43 -91 43q-60 0 -95 -48q-22 -31 -22 -70v-721h-176v975z"/>
<glyph unicode="o" d="M83 278v423q0 89 48 163q41 62 105 96.5t139 34.5q141 0 227 -107q66 -82 66 -187v-423q0 -95 -48 -169q-85 -129 -253 -129q-144 0 -227 112q-57 78 -57 186zM259 259q0 -45 30 -80q36 -43 88 -43q56 0 91 47q24 31 24 76v462q0 53 -39 87q-36 31 -80 31q-63 0 -95 -55 q-19 -31 -19 -63v-462z"/>
<glyph unicode="p" horiz-adv-x="780" d="M112 -396v1371h176v-41q79 61 165 61q124 0 199 -101q45 -61 45 -151v-519q0 -87 -50 -150q-74 -93 -199 -93q-79 0 -160 57v-434h-176zM288 256q0 -41 26 -75q35 -44 90 -44q67 0 102 57q15 26 15 62v459q0 53 -35 89q-34 35 -82 35q-63 0 -100 -54q-16 -24 -16 -70 v-459z"/>
<glyph unicode="q" horiz-adv-x="780" d="M83 224v519q0 90 45 151q75 101 198 101q86 0 166 -61v41h176v-1371h-176v434q-82 -57 -160 -57q-67 0 -124 30.5t-90 83.5q-35 57 -35 129zM259 256q0 -43 23 -72q36 -47 94 -47q64 0 98 56q18 31 18 63v459q0 53 -25 81q-37 43 -91 43q-57 0 -92 -47q-25 -34 -25 -77 v-459z"/>
<glyph unicode="r" horiz-adv-x="577" d="M112 0v969h176v-78q38 80 125 82q97 0 163 -73l-95 -138q-28 42 -73 43q-57 1 -91 -42q-30 -41 -29 -103v-660h-176z"/>
<glyph unicode="s" d="M83 283h171q23 -128 124 -128q49 0 82 36t33 84q0 70 -67 107l-189 106q-63 34 -101 102q-33 57 -33 125q0 115 79 199q76 81 192 81q69 0 129 -31.5t98 -87.5q44 -64 47 -157h-183q-2 39 -17 60q-28 40 -79 40q-48 0 -75 -39q-15 -21 -15 -58q0 -55 44 -79l181 -98 q165 -90 165 -264q0 -131 -88 -214q-91 -87 -207 -87q-100 0 -186 69q-104 84 -105 234z"/>
<glyph unicode="t" horiz-adv-x="585" d="M73 811v156h88v333l176 65v-398h175v-156h-175v-604q0 -28 13.5 -39.5t46.5 -11.5h95v-156h-155q-77 0 -127 46q-49 47 -49 110v655h-88z"/>
<glyph unicode="u" horiz-adv-x="800" d="M102 231v744h176v-719q0 -52 24 -80q34 -40 90 -40q62 0 97 49q22 31 22 71v719h176v-975h-176v42q-36 -24 -57 -35q-52 -27 -109 -27q-60 0 -114.5 26.5t-86.5 71.5q-42 60 -42 153z"/>
<glyph unicode="v" horiz-adv-x="746" d="M53 975h177l147 -627l142 627h174l-219 -975h-198z"/>
<glyph unicode="w" horiz-adv-x="1121" d="M53 975h175l127 -641l125 641h172l127 -645l135 645h153l-195 -975h-202l-113 558l-114 -558h-198z"/>
<glyph unicode="x" horiz-adv-x="727" d="M44 0l215 503l-215 472h198l124 -267l123 267h195l-217 -472l217 -503h-195l-123 291l-124 -291h-198z"/>
<glyph unicode="y" horiz-adv-x="746" d="M53 982h188l130 -576l142 576h180l-322 -1375h-185l90 395z"/>
<glyph unicode="z" horiz-adv-x="771" d="M93 0v156l380 663h-355v156h541v-156l-373 -663h392v-156h-585z"/>
<glyph unicode="{" horiz-adv-x="729" d="M102 621v123q49 8 84 49q28 35 29 132v242q1 165 77 230q53 46 130 58q37 6 104 6h67v-123h-27q-99 0 -128 -20q-35 -24 -38 -73q-2 -20 -3 -63v-247q-1 -103 -28 -157q-21 -44 -57 -70q-9 -8 -37 -25q35 -23 48 -34q73 -65 74 -219v-247q2 -82 12 -103q22 -42 84 -49 q32 -4 73 -4h27v-123h-67h-8q-100 0 -162 24q-97 42 -124 137q-17 56 -17 133v242q-1 97 -29 132q-35 41 -84 49z"/>
<glyph unicode="|" horiz-adv-x="1024" d="M417 -341v1706h189v-1706h-189z"/>
<glyph unicode="}" horiz-adv-x="729" d="M137 27h27q99 0 127 20q35 24 38 73q2 20 3 63v247q1 104 28 157q21 44 57 70q9 8 37 26q-35 22 -48 33q-73 65 -74 219v247q-2 82 -12 103q-22 42 -83 49q-33 4 -73 4h-27v123h67h8q100 0 161 -24q97 -42 124 -137q17 -56 17 -133v-242q1 -97 29 -132q35 -41 85 -49 v-123q-50 -8 -85 -49q-28 -35 -29 -132v-242q-1 -165 -77 -230q-75 -64 -220 -64h-13h-67v123z"/>
<glyph unicode="~" horiz-adv-x="1365" d="M193 1255q37 81 83 138q82 102 198 102q78 0 233 -76q87 -43 116 -53q42 -14 75 -14q65 0 115 55q31 34 64 93l98 -79q-42 -91 -85 -142q-83 -99 -196 -99q-50 0 -120 29q-36 14 -110 49q-138 66 -196 66q-66 0 -115 -57q-29 -34 -62 -90z"/>
<glyph unicode="?" horiz-adv-x="485" d="M86 0l73 1023h95l74 -1023h-242zM110 1170v195h195v-195h-195z"/>
<glyph unicode="?" d="M85 280v421q-2 154 128 246q53 35 115 45v149h96v-150q97 -17 166 -85q72 -75 80 -205h-181v21q0 35 -14.5 58t-50.5 47v-679q64 32 65 111v21h181v-8q0 -76 -39 -146q-72 -120 -207 -142v-148h-96v148q-93 16 -160 82q-82 82 -83 214zM261 259q0 -84 67 -113v682 q-66 -33 -67 -106v-463z"/>
<glyph unicode="?" horiz-adv-x="939" d="M96 622v87h126q-62 122 -85 184q-31 82 -31 140q0 70 30.5 138.5t82.5 116.5q104 97 266 97q149 0 243 -100q61 -66 81 -141q18 -70 26 -177h-181q-6 89 -24 131q-27 61 -75 96q-40 28 -81 28q-57 0 -105 -48q-53 -53 -53 -127q0 -40 15.5 -100.5t35.5 -98.5 q52 -97 70 -139h190v-87h-169q3 -64 3 -104q0 -114 -23 -189q-18 -64 -87 -157h492v-172h-719v74q48 38 83 89q75 110 75 247q0 87 -39 212h-147z"/>
<glyph unicode="?" horiz-adv-x="1524" d="M173 1168l97 98l199 -198q144 101 293 101q152 0 290 -100l199 196l96 -97l-197 -196q102 -144 102 -291q0 -148 -99 -287l198 -198l-96 -97l-198 198q-137 -102 -292 -102q-145 0 -295 101l-197 -197l-96 97l195 197q-100 135 -100 290q0 146 101 287zM433 682 q0 -137 96 -233q97 -97 233 -97t233 97q96 96 96 232q0 140 -96 234q-98 97 -237 97q-132 0 -229 -97q-96 -97 -96 -233z"/>
<glyph unicode="?" horiz-adv-x="814" d="M29 1365h205l175 -538l168 538h209l-194 -615h173v-87h-201l-58 -184h239v-87h-239v-392h-195v392h-241v87h241l-58 184h-203v87h175z"/>
<glyph unicode="?" horiz-adv-x="1024" d="M417 314h189v-655h-189v655zM417 674v691h189v-691h-189z"/>
<glyph unicode="?" horiz-adv-x="988" d="M112 729q0 124 95 204q28 24 69 49q-112 77 -112 204q0 129 94 204q85 68 241 68q200 0 277 -128q38 -65 38 -146h-185q-4 135 -141 135q-68 0 -103 -39q-28 -31 -28 -76q0 -59 54 -100q35 -26 250 -143q127 -68 170 -136q45 -71 45 -155q0 -116 -72 -194 q-25 -26 -74 -62q43 -37 62 -66q41 -62 41 -153q0 -130 -86 -209q-87 -79 -245 -79q-341 0 -340 319h189q0 -176 144 -176q60 0 97 33q42 38 42 103q0 62 -44 103q-38 35 -89 64l-198 111q-106 59 -148 122q-43 63 -43 143zM283 759q0 -48 40 -87q22 -21 87 -58 q83 -48 194 -119l10 -7q92 60 92 151q0 67 -58 115q-36 30 -175 107l-71 43l-9 6q-37 -26 -58 -45q-52 -47 -52 -106z"/>
<glyph unicode="?" horiz-adv-x="1024" d="M258 1170v156h156v-156h-156zM609 1170v156h156v-156h-156z"/>
<glyph unicode="?" horiz-adv-x="1134" d="M93 374v618q0 155 118 263q142 130 357 130q239 0 379 -166q94 -110 94 -227v-618q0 -117 -80 -217q-141 -177 -397 -177q-228 0 -368 141q-103 103 -103 253zM223 376q0 -108 75 -181q103 -99 266 -99q89 0 166 33t122 90q59 74 59 157v609q0 118 -103 201 q-102 83 -240 83q-120 0 -220 -67q-125 -83 -125 -217v-609zM342 484v395q0 79 55 139q67 72 168 72q94 0 163 -63q63 -59 63 -155h-136v19q0 30 -21 54q-26 31 -69 31q-51 0 -77 -42q-12 -19 -12 -43v-417q0 -33 21 -56q27 -29 68 -29q86 0 90 102h136q-1 -66 -31 -114 q-62 -102 -196 -102q-107 0 -170 72q-52 59 -52 137z"/>
<glyph unicode="?" horiz-adv-x="486" d="M66 970q0 72 51 117q42 38 102 38h29q26 0 37 17.5t11 58.5v11q0 21 -12 36q-16 19 -41 19q-30 0 -44 -26q-9 -14 -9 -29v-20h-112q2 65 29 105q48 71 134 71q83 0 135 -66q32 -40 32 -101v-382h-112v9q-27 -9 -72 -9q-63 0 -103 33q-55 44 -55 118zM178 974 q0 -53 60 -53q58 0 58 51v60q-28 -8 -48 -8h-25q-19 0 -33 -16q-12 -13 -12 -34z"/>
<glyph unicode="?" horiz-adv-x="1034" d="M127 590l389 390v-193l-195 -197l195 -194v-197zM517 590l389 390v-193l-195 -197l195 -194v-197z"/>
<glyph unicode="?" horiz-adv-x="1024" d="M68 407v166h887v-573h-184v407h-703z"/>
<glyph unicode="?" horiz-adv-x="958" d="M216 553v179h527v-179h-527z"/>
<glyph unicode="?" horiz-adv-x="1134" d="M93 374v618q0 155 118 263q142 130 357 130q239 0 379 -166q94 -110 94 -227v-618q0 -117 -80 -217q-141 -177 -397 -177q-228 0 -368 141q-103 103 -103 253zM223 376q0 -108 75 -181q103 -99 266 -99q89 0 166 33t122 90q59 74 59 157v609q0 118 -103 201 q-102 83 -240 83q-120 0 -220 -67q-125 -83 -125 -217v-609zM358 287v792h262q35 0 73 -15t63 -39q56 -52 56 -132v-81q0 -64 -49 -122q-32 -37 -88 -56l153 -347h-149l-147 344h-40v-344h-134zM492 745h106q38 0 58 18q21 20 21 49v81q0 25 -16 45q-23 27 -56 27h-113v-220 z"/>
<glyph unicode="?" horiz-adv-x="751" d="M-208 122v106h416v-106h-416z"/>
<glyph unicode="?" horiz-adv-x="777" d="M93 1080q0 140 101 225q86 73 199 73q122 0 211 -94q80 -84 80 -202q0 -126 -89 -213q-86 -84 -205 -84q-132 0 -220 97q-77 84 -77 198zM212 1082q0 -67 43 -118q52 -63 133 -63q69 0 121 50q56 54 56 128t-49 126q-54 57 -131 57q-65 0 -115 -48q-58 -56 -58 -132z"/>
<glyph unicode="?" horiz-adv-x="1524" d="M250 116v164h1024v-164h-1024zM250 710v164h430v375h164v-375h430v-164h-430v-375h-164v375h-430z"/>
<glyph unicode="?" horiz-adv-x="591" d="M67 1143v22q0 71 44 125q68 86 181 86q105 0 171 -80q47 -57 47 -130q0 -55 -31 -105l-240 -398h284v-117h-444v112l283 473q14 24 14 51q0 30 -21 51q-25 26 -61 26q-55 0 -79 -48q-11 -22 -11 -46v-22h-137z"/>
<glyph unicode="?" horiz-adv-x="587" d="M56 745v44h137v-44q0 -31 17 -56q25 -37 74 -37q54 0 79 45q12 22 12 48v83q0 32 -22 56q-27 29 -69 29h-57v117h58q29 0 52 17q26 22 26 54v84q0 30 -21 51q-25 24 -58 24q-41 0 -66 -33q-13 -18 -13 -42v-41h-137v27q0 66 37 116q66 90 178 90q105 0 170 -77 q47 -56 47 -129v-70q0 -44 -25 -86q-17 -28 -42 -45q54 -41 67 -74q12 -28 12 -65v-86q0 -75 -56 -135q-71 -75 -175 -75q-110 0 -178 83q-47 57 -47 127z"/>
<glyph unicode="?" horiz-adv-x="1024" d="M423 1114l246 255h173l-258 -255h-161z"/>
<glyph unicode="?" horiz-adv-x="1024" d="M87 983h174v-549q0 -119 20 -172q32 -89 115 -129q53 -26 113 -26q115 0 187 91q40 52 56 114q12 49 12 138v533h174v-983h-174v162q-37 -81 -79 -119q-74 -68 -181 -68q-101 0 -174 60q-33 28 -69 85v-466h-174v1329z"/>
<glyph unicode="?" horiz-adv-x="911" d="M34 997v143q0 133 78 220q88 94 236 94h451v-1543h-164v1366h-123v-1366h-164v780h-55q-49 0 -101 25.5t-85 67.5q-73 88 -73 213z"/>
<glyph unicode="?" horiz-adv-x="380" d="M102 400v176h176v-176h-176z"/>
<glyph unicode="?" horiz-adv-x="1024" d="M324 -255q35 -16 78 -29.5t86 -13.5q41 2 61.5 20.5t20.5 51.5q0 36 -22 56q-24 20 -60 20h-8q-29 0 -61 -13l51 163h84l-25 -74h33q69 -7 103.5 -49.5t34.5 -113.5q0 -68 -54 -109.5t-143 -41.5q-51 3 -100 18t-79 30v85z"/>
<glyph unicode="?" horiz-adv-x="555" d="M121 1185l180 180h133v-819h-136v646l-92 -92z"/>
<glyph unicode="?" horiz-adv-x="464" d="M67 976v226q0 50 27 92q48 74 137 74q80 0 129 -61q37 -46 37 -105v-226q0 -53 -27 -95q-48 -73 -142 -73q-82 0 -129 63q-32 44 -32 105zM179 966q0 -21 14 -37q16 -20 40 -20q26 0 41 21q11 15 11 36v247q0 24 -18 40q-17 14 -37 14q-28 0 -43 -25q-8 -15 -8 -29v-247z "/>
<glyph unicode="?" horiz-adv-x="1034" d="M128 199v197l195 194l-195 197v193l389 -390zM517 199v197l195 194l-195 197v193l389 -390z"/>
<glyph unicode="?" horiz-adv-x="1215" d="M73 1185l180 180h133v-819h-136v646l-92 -92zM296 0l462 1365h123l-457 -1365h-128zM648 125v112l285 582h171v-577h37v-117h-37v-125h-137v125h-319zM800 242h167v341z"/>
<glyph unicode="?" horiz-adv-x="1255" d="M65 1185l180 180h133v-819h-136v646l-92 -92zM305 0l462 1365h123l-457 -1365h-128zM733 597v22q0 71 44 125q68 86 181 86q105 0 171 -80q47 -57 47 -130q0 -55 -30 -105l-241 -398h284v-117h-444v112l283 473q14 24 14 51q0 30 -21 51q-25 26 -61 26q-55 0 -79 -48 q-11 -22 -11 -46v-22h-137z"/>
<glyph unicode="?" horiz-adv-x="1295" d="M56 745v44h137v-44q0 -31 17 -56q25 -37 74 -37q54 0 79 45q12 22 12 48v83q0 32 -22 56q-27 29 -69 29h-57v117h58q29 0 52 17q26 22 26 54v84q0 30 -21 51q-25 24 -58 24q-41 0 -66 -33q-13 -18 -13 -42v-41h-137v27q0 66 37 116q66 90 178 90q105 0 170 -77 q47 -56 47 -129v-70q0 -44 -25 -86q-17 -28 -42 -45q54 -41 67 -74q12 -28 12 -65v-86q0 -75 -56 -135q-71 -75 -175 -75q-110 0 -178 83q-47 57 -47 127zM382 0l462 1365h123l-456 -1365h-129zM735 125v112l285 582h171v-577h37v-117h-37v-125h-137v125h-319zM887 242h167 v341z"/>
<glyph unicode="?" horiz-adv-x="717" d="M42 273v117q-1 102 46 184l101 177q32 53 40 81q7 24 7 83v109h198v-109q0 -79 -10 -124q-14 -57 -52 -119l-103 -166q-33 -53 -33 -127v-106q0 -38 25 -61q29 -29 73 -29q96 0 96 114v93h194v-93q0 -104 -52 -179q-42 -61 -106.5 -95.5t-137.5 -34.5q-164 0 -246 144 q-40 69 -40 141zM236 1171v194h198v-194h-198z"/>
<glyph unicode="?" horiz-adv-x="877" d="M29 0l298 1365h222l299 -1365h-203l-38 155h-343l-34 -155h-201zM110 1758h172l247 -255h-162zM304 331h265l-134 624z"/>
<glyph unicode="?" horiz-adv-x="877" d="M29 0l298 1365h222l299 -1365h-203l-38 155h-343l-34 -155h-201zM304 331h265l-134 624zM351 1503l246 255h173l-258 -255h-161z"/>
<glyph unicode="?" horiz-adv-x="877" d="M29 0l298 1365h222l299 -1365h-203l-38 155h-343l-34 -155h-201zM180 1586l260 148l260 -146l-79 -80l-181 100l-182 -100zM304 331h265l-134 624z"/>
<glyph unicode="?" horiz-adv-x="877" d="M29 0l298 1365h222l299 -1365h-203l-38 155h-343l-34 -155h-201zM197 1551v29q0 69 27 102q37 44 90 44q42 0 89 -20l97 -39q16 -7 36 -7q47 0 50 66h96v-32q0 -57 -24 -88q-41 -55 -109 -55q-46 0 -86 20l-81 39q-20 9 -42 9q-47 0 -47 -53q0 -4 1 -15h-97zM304 331h265 l-134 624z"/>
<glyph unicode="?" horiz-adv-x="877" d="M29 0l298 1365h222l299 -1365h-203l-38 155h-343l-34 -155h-201zM186 1560v156h156v-156h-156zM304 331h265l-134 624zM537 1560v156h156v-156h-156z"/>
<glyph unicode="?" horiz-adv-x="877" d="M29 0l298 1365h222l299 -1365h-203l-38 155h-343l-34 -155h-201zM220 1679q0 93 64 156q66 64 160 64q89 0 151 -64q64 -67 64 -156q0 -88 -64 -155q-62 -64 -154 -64q-93 0 -157 64q-64 65 -64 155zM304 331h265l-134 624zM329 1679q0 -45 32 -78q32 -32 80 -32 q46 0 77 32q32 34 32 78q0 45 -32 79q-32 32 -79 32q-45 0 -78 -32q-32 -33 -32 -79z"/>
<glyph unicode="?" horiz-adv-x="1300" d="M15 0l503 1365h729v-176h-421v-408h276v-176h-276v-429h421v-176h-616v155h-360l-55 -155h-201zM331 331h300v858z"/>
<glyph unicode="?" horiz-adv-x="888" d="M93 335v691q0 136 87 236q105 123 262 123q129 0 231 -87q123 -104 122 -272h-197v22q0 57 -36 103q-46 59 -119 59q-90 0 -135 -80q-20 -37 -20 -82v-731q0 -62 36 -105q47 -56 118 -56q47 0 85 26t57 70q13 30 14 83h197q0 -77 -21 -131q-36 -89 -106 -146 q-94 -78 -184 -78l-25 -74h33q69 -7 103.5 -49.5t34.5 -113.5q0 -68 -54 -109.5t-143 -41.5q-51 3 -100 18t-79 30v85q35 -16 78 -29.5t86 -13.5q41 2 61.5 20.5t20.5 51.5q0 36 -22 56q-24 20 -60 20h-8q-29 0 -61 -13l55 163q-130 0 -230 123q-81 99 -81 232z"/>
<glyph unicode="?" horiz-adv-x="817" d="M113 1758h172l247 -255h-162zM120 0v1365h644v-176h-449v-408h297v-176h-297v-429h449v-176h-644z"/>
<glyph unicode="?" horiz-adv-x="817" d="M112 0v1365h644v-176h-449v-408h297v-176h-297v-429h449v-176h-644zM346 1503l246 255h173l-258 -255h-161z"/>
<glyph unicode="?" horiz-adv-x="809" d="M112 0v1365h644v-176h-449v-408h297v-176h-297v-429h449v-176h-644zM175 1586l260 148l260 -146l-79 -80l-181 100l-182 -100z"/>
<glyph unicode="?" horiz-adv-x="809" d="M112 0v1365h644v-176h-449v-408h297v-176h-297v-429h449v-176h-644zM181 1560v156h156v-156h-156zM532 1560v156h156v-156h-156z"/>
<glyph unicode="?" horiz-adv-x="419" d="M-119 1758h172l247 -255h-162zM112 0v1365h195v-1365h-195z"/>
<glyph unicode="?" horiz-adv-x="418" d="M112 0v1365h195v-1365h-195zM122 1503l246 255h173l-258 -255h-161z"/>
<glyph unicode="?" horiz-adv-x="419" d="M-49 1586l260 148l260 -146l-79 -80l-181 100l-182 -100zM112 0v1365h195v-1365h-195z"/>
<glyph unicode="?" horiz-adv-x="419" d="M24 1560v156h156v-156h-156zM112 0v1365h195v-1365h-195zM239 1560v156h156v-156h-156z"/>
<glyph unicode="?" horiz-adv-x="930" d="M57 593v179h68v593h393q140 0 232 -101q79 -88 78 -212v-745q0 -123 -86 -213q-92 -94 -226 -94h-391v593h-68zM320 176h178h3q58 0 99 43q33 38 33 88v745q0 64 -35.5 100.5t-97.5 36.5h-180v-417h155v-179h-155v-417z"/>
<glyph unicode="?" horiz-adv-x="926" d="M112 0v1365h211l315 -894v894h176v-1365h-210l-316 871v-871h-176zM221 1551v29q0 69 27 102q37 44 90 44q42 0 89 -20l97 -39q16 -7 36 -7q47 0 50 66h96v-32q0 -57 -24 -88q-41 -55 -109 -55q-46 0 -86 20l-81 39q-20 9 -42 9q-47 0 -47 -53q0 -4 1 -15h-97z"/>
<glyph unicode="?" horiz-adv-x="888" d="M93 333v700q0 138 87 235q104 117 263 117q179 0 283 -148q69 -99 69 -204v-700q0 -104 -59 -194q-105 -159 -296 -159q-170 0 -272 126q-75 93 -75 227zM115 1758h172l247 -255h-162zM288 308q0 -58 33 -97q46 -55 121 -55q86 0 132 67q26 39 26 85v745q0 65 -46 110 q-47 46 -109 46q-87 0 -135 -74q-22 -35 -22 -82v-745z"/>
<glyph unicode="?" horiz-adv-x="888" d="M93 333v700q0 138 87 235q104 117 263 117q179 0 283 -148q69 -99 69 -204v-700q0 -104 -59 -194q-105 -159 -296 -159q-170 0 -272 126q-75 93 -75 227zM288 308q0 -58 33 -97q46 -55 121 -55q86 0 132 67q26 39 26 85v745q0 65 -46 110q-47 46 -109 46q-87 0 -135 -74 q-22 -35 -22 -82v-745zM356 1503l246 255h173l-258 -255h-161z"/>
<glyph unicode="?" horiz-adv-x="888" d="M93 333v700q0 138 87 235q104 117 263 117q179 0 283 -148q69 -99 69 -204v-700q0 -104 -59 -194q-105 -159 -296 -159q-170 0 -272 126q-75 93 -75 227zM185 1586l260 148l260 -146l-79 -80l-181 100l-182 -100zM288 308q0 -58 33 -97q46 -55 121 -55q86 0 132 67 q26 39 26 85v745q0 65 -46 110q-47 46 -109 46q-87 0 -135 -74q-22 -35 -22 -82v-745z"/>
<glyph unicode="?" horiz-adv-x="888" d="M93 333v700q0 138 87 235q104 117 263 117q179 0 283 -148q69 -99 69 -204v-700q0 -104 -59 -194q-105 -159 -296 -159q-170 0 -272 126q-75 93 -75 227zM202 1551v29q0 69 27 102q37 44 90 44q42 0 89 -20l97 -39q16 -7 36 -7q47 0 50 66h96v-32q0 -57 -24 -88 q-41 -55 -109 -55q-46 0 -86 20l-81 39q-20 9 -42 9q-47 0 -47 -53q0 -4 1 -15h-97zM288 308q0 -58 33 -97q46 -55 121 -55q86 0 132 67q26 39 26 85v745q0 65 -46 110q-47 46 -109 46q-87 0 -135 -74q-22 -35 -22 -82v-745z"/>
<glyph unicode="?" horiz-adv-x="888" d="M93 333v700q0 138 87 235q104 117 263 117q179 0 283 -148q69 -99 69 -204v-700q0 -104 -59 -194q-105 -159 -296 -159q-170 0 -272 126q-75 93 -75 227zM191 1560v156h156v-156h-156zM288 308q0 -58 33 -97q46 -55 121 -55q86 0 132 67q26 39 26 85v745q0 65 -46 110 q-47 46 -109 46q-87 0 -135 -74q-22 -35 -22 -82v-745zM542 1560v156h156v-156h-156z"/>
<glyph unicode="?" horiz-adv-x="1524" d="M342 379l304 304l-304 304l116 116l304 -304l304 304l116 -116l-304 -304l304 -304l-116 -116l-304 304l-304 -304z"/>
<glyph unicode="?" horiz-adv-x="888" d="M93 36l48 109q-47 81 -48 188v700q0 138 87 235q104 117 263 117q120 0 213 -73l30 67l109 -50l-52 -119q52 -88 52 -177v-700q0 -104 -59 -194q-105 -159 -296 -159q-116 0 -210 68l-30 -69zM288 478l289 656q-52 75 -133 75q-86 0 -134 -74q-22 -35 -22 -82v-575z M309 227q47 -71 134 -71q85 0 131 67q26 39 26 85v579z"/>
<glyph unicode="?" horiz-adv-x="907" d="M102 335v1030h195v-1041q0 -61 36 -109q45 -60 119 -60q87 0 131 76q26 44 26 93v1041h195v-1030q0 -104 -55 -194q-46 -75 -126 -118t-175 -43q-184 0 -286 149q-60 88 -60 206zM124 1758h172l247 -255h-162z"/>
<glyph unicode="?" horiz-adv-x="907" d="M102 335v1030h195v-1041q0 -61 36 -109q45 -60 119 -60q87 0 131 76q26 44 26 93v1041h195v-1030q0 -104 -55 -194q-46 -75 -126 -118t-175 -43q-184 0 -286 149q-60 88 -60 206zM365 1503l246 255h173l-258 -255h-161z"/>
<glyph unicode="?" horiz-adv-x="907" d="M102 335v1030h195v-1041q0 -61 36 -109q45 -60 119 -60q87 0 131 76q26 44 26 93v1041h195v-1030q0 -104 -55 -194q-46 -75 -126 -118t-175 -43q-184 0 -286 149q-60 88 -60 206zM194 1586l260 148l260 -146l-79 -80l-181 100l-182 -100z"/>
<glyph unicode="?" horiz-adv-x="907" d="M102 335v1030h195v-1041q0 -61 36 -109q45 -60 119 -60q87 0 131 76q26 44 26 93v1041h195v-1030q0 -104 -55 -194q-46 -75 -126 -118t-175 -43q-184 0 -286 149q-60 88 -60 206zM200 1560v156h156v-156h-156zM551 1560v156h156v-156h-156z"/>
<glyph unicode="?" horiz-adv-x="814" d="M29 1365h205l175 -538l168 538h209l-280 -886v-479h-195v479zM320 1503l246 255h173l-258 -255h-161z"/>
<glyph unicode="?" horiz-adv-x="848" d="M112 1365h195v-286h202h3q140 0 227 -95q75 -86 75 -220v-142q0 -57 -24 -115t-64 -98q-59 -60 -155 -84q-38 -9 -71 -9h-193v-316h-195v1365zM307 492h174q65 0 104 41q34 37 34 89v142q0 53 -28 90q-36 49 -106 49h-178v-411z"/>
<glyph unicode="?" horiz-adv-x="809" d="M112 1067q0 77 11 112q31 97 116 155q75 51 166 51q151 0 239 -124q53 -75 53 -155v-131v-8q0 -115 -109 -170q109 -69 109 -189v-6v-360v-9q0 -107 -73 -178q-58 -54 -152 -55h-34v185h17q66 0 66 71v8v382q0 65 -71 65h-12v169h12q33 0 51 14q20 18 20 54v175 q0 106 -117 106q-82 0 -106 -54q-10 -22 -10 -71v-1104h-176v1067z"/>
<glyph unicode="?" horiz-adv-x="818" d="M84 1369h172l247 -255h-162zM110 265q0 129 89 209q74 66 176 90l165 48v108q0 45 -27 77q-35 42 -90 42q-64 0 -97 -56q-18 -31 -18 -63v-21h-176q6 102 51 170q40 59 103.5 92.5t134.5 33.5q146 0 239 -117q46 -58 54 -119q2 -14 2 -60v-699h-176v23q-64 -23 -153 -23 q-110 0 -181 58q-96 77 -96 207zM286 272q0 -56 33 -86t96 -30q68 0 100 40q25 32 25 74v175l-154 -50q-42 -13 -74 -46q-26 -31 -26 -77z"/>
<glyph unicode="?" horiz-adv-x="818" d="M82 265q0 129 89 209q74 66 176 90l165 48v108q0 45 -27 77q-35 42 -90 42q-64 0 -97 -56q-18 -31 -18 -63v-21h-176q6 102 51 170q40 59 103.5 92.5t134.5 33.5q146 0 239 -117q46 -58 54 -119q2 -14 2 -60v-699h-176v23q-64 -23 -153 -23q-110 0 -181 58 q-96 77 -96 207zM258 272q0 -56 33 -86t96 -30q68 0 100 40q25 32 25 74v175l-154 -50q-42 -13 -74 -46q-26 -31 -26 -77zM298 1114l246 255h173l-258 -255h-161z"/>
<glyph unicode="?" horiz-adv-x="790" d="M82 265q0 129 89 209q74 66 176 90l165 48v108q0 45 -27 77q-35 42 -90 42q-64 0 -97 -56q-18 -31 -18 -63v-21h-176q6 102 51 170q40 59 103.5 92.5t134.5 33.5q146 0 239 -117q46 -58 54 -119q2 -14 2 -60v-699h-176v23q-64 -23 -153 -23q-110 0 -181 58 q-96 77 -96 207zM154 1200l260 148l260 -146l-79 -80l-181 100l-182 -100zM258 272q0 -56 33 -86t96 -30q68 0 100 40q25 32 25 74v175l-154 -50q-42 -13 -74 -46q-26 -31 -26 -77z"/>
<glyph unicode="?" horiz-adv-x="790" d="M92 265q0 129 89 209q74 66 176 90l165 48v108q0 45 -27 77q-35 42 -90 42q-64 0 -97 -56q-18 -31 -18 -63v-21h-176q6 102 51 170q40 59 103.5 92.5t134.5 33.5q146 0 239 -117q46 -58 54 -119q2 -14 2 -60v-699h-176v23q-64 -23 -153 -23q-110 0 -181 58 q-96 77 -96 207zM153 1162v29q0 69 27 102q37 44 90 44q42 0 89 -20l97 -39q16 -7 36 -7q47 0 50 66h96v-32q0 -57 -24 -88q-41 -55 -109 -55q-46 0 -86 20l-81 39q-20 9 -42 9q-47 0 -47 -53q0 -4 1 -15h-97zM268 272q0 -56 33 -86t96 -30q68 0 100 40q25 32 25 74v175 l-154 -50q-42 -13 -74 -46q-26 -31 -26 -77z"/>
<glyph unicode="?" horiz-adv-x="790" d="M92 265q0 129 89 209q74 66 176 90l165 48v108q0 45 -27 77q-35 42 -90 42q-64 0 -97 -56q-18 -31 -18 -63v-21h-176q6 102 51 170q40 59 103.5 92.5t134.5 33.5q146 0 239 -117q46 -58 54 -119q2 -14 2 -60v-699h-176v23q-64 -23 -153 -23q-110 0 -181 58 q-96 77 -96 207zM143 1170v156h156v-156h-156zM268 272q0 -56 33 -86t96 -30q68 0 100 40q25 32 25 74v175l-154 -50q-42 -13 -74 -46q-26 -31 -26 -77zM494 1170v156h156v-156h-156z"/>
<glyph unicode="?" horiz-adv-x="790" d="M82 265q0 129 89 209q74 66 176 90l165 48v108q0 45 -27 77q-35 42 -90 42q-64 0 -97 -56q-18 -31 -18 -63v-21h-176q6 102 51 170q40 59 103.5 92.5t134.5 33.5q146 0 239 -117q46 -58 54 -119q2 -14 2 -60v-699h-176v23q-64 -23 -153 -23q-110 0 -181 58 q-96 77 -96 207zM194 1311q0 92 64 155q66 64 160 64q89 0 151 -64q64 -66 64 -155q0 -88 -64 -155q-62 -64 -154 -64q-93 0 -157 64t-64 155zM258 272q0 -56 33 -86t96 -30q68 0 100 40q25 32 25 74v175l-154 -50q-42 -13 -74 -46q-26 -31 -26 -77zM303 1311q0 -45 32 -78 q32 -32 80 -32q45 0 77 32q32 34 32 78q0 45 -32 78q-32 32 -79 32q-45 0 -78 -32q-32 -32 -32 -78z"/>
<glyph unicode="?" horiz-adv-x="1181" d="M82 261q0 133 89 213q74 66 175 94l166 43v88v21q0 45 -27 77q-35 42 -90 42q-64 0 -97 -56q-18 -31 -18 -63v-21h-176q6 102 51 170q40 59 103 92.5t135 33.5q117 0 210 -86q90 83 200 83q99 0 182 -62q112 -82 112 -234v-237h-409v-176q0 -68 31 -105q36 -42 89 -42 q76 0 103 72q10 28 10 68v7h176q-2 -44 -4 -68q-10 -88 -87 -159q-83 -76 -202 -76q-137 0 -226 107q-33 -43 -62 -66q-53 -41 -150 -41q-113 0 -188 63q-96 80 -96 218zM258 269q0 -58 34 -99q28 -34 89 -34q75 0 106 53q25 40 25 94v162l-144 -43q-54 -18 -84 -54 q-26 -30 -26 -79zM688 615h233v101q0 38 -24 72q-34 48 -91 48q-72 0 -105 -66q-13 -27 -13 -54v-101z"/>
<glyph unicode="?" d="M83 280v421q0 108 66 188q87 106 222 106q111 0 197 -70q89 -74 100 -224h-181v21q0 49 -33 81q-35 36 -81 36q-60 0 -95 -53q-19 -29 -19 -64v-463q0 -54 28 -86q33 -37 84 -37q66 0 98 54q18 29 18 69v21h181q0 -65 -18 -110q-29 -73 -85 -122q-78 -66 -141 -66h-4 l-25 -74h33q69 -7 103.5 -49.5t34.5 -113.5q0 -68 -54 -109.5t-143 -41.5q-51 3 -100 18t-79 30v85q35 -16 78 -29.5t86 -13.5q41 2 61.5 20.5t20.5 51.5q0 36 -22 56q-24 20 -60 20h-8q-29 0 -61 -13l50 164h-6q-34 0 -93 30q-63 33 -102 92q-51 76 -51 175z"/>
<glyph unicode="?" d="M47 1369h172l247 -255h-162zM83 283v413q0 107 70 190q89 106 220 106q100 0 184 -62q111 -82 111 -234v-237h-409v-176q0 -68 31 -105q36 -42 89 -42q76 0 103 72q10 28 10 68v7h176q-2 -44 -4 -68q-10 -88 -87 -159q-83 -76 -202 -76q-148 0 -233 115q-59 80 -59 188z M259 615h233v101q0 39 -24 72q-34 48 -91 48q-71 0 -105 -66q-13 -26 -13 -54v-101z"/>
<glyph unicode="?" d="M83 283v413q0 107 70 190q89 106 220 106q100 0 184 -62q111 -82 111 -234v-237h-409v-176q0 -68 31 -105q36 -42 89 -42q76 0 103 72q10 28 10 68v7h176q-2 -44 -4 -68q-10 -88 -87 -159q-83 -76 -202 -76q-148 0 -233 115q-59 80 -59 188zM259 615h233v101q0 39 -24 72 q-34 48 -91 48q-71 0 -105 -66q-13 -26 -13 -54v-101zM288 1114l246 255h173l-258 -255h-161z"/>
<glyph unicode="?" d="M83 283v413q0 107 70 190q89 106 220 106q100 0 184 -62q111 -82 111 -234v-237h-409v-176q0 -68 31 -105q36 -42 89 -42q76 0 103 72q10 28 10 68v7h176q-2 -44 -4 -68q-10 -88 -87 -159q-83 -76 -202 -76q-148 0 -233 115q-59 80 -59 188zM117 1200l260 148l260 -146 l-79 -80l-181 100l-182 -100zM259 615h233v101q0 39 -24 72q-34 48 -91 48q-71 0 -105 -66q-13 -26 -13 -54v-101z"/>
<glyph unicode="?" d="M83 283v413q0 107 70 190q89 106 220 106q100 0 184 -62q111 -82 111 -234v-237h-409v-176q0 -68 31 -105q36 -42 89 -42q76 0 103 72q10 28 10 68v7h176q-2 -44 -4 -68q-10 -88 -87 -159q-83 -76 -202 -76q-148 0 -233 115q-59 80 -59 188zM123 1170v156h156v-156h-156z M259 615h233v101q0 39 -24 72q-34 48 -91 48q-71 0 -105 -66q-13 -26 -13 -54v-101zM474 1170v156h156v-156h-156z"/>
<glyph unicode="?" horiz-adv-x="400" d="M-129 1369h172l247 -255h-162zM112 0v975h176v-975h-176z"/>
<glyph unicode="?" horiz-adv-x="400" d="M113 0v975h176v-975h-176zM113 1114l246 255h173l-258 -255h-161z"/>
<glyph unicode="?" horiz-adv-x="399" d="M-59 1200l260 148l260 -146l-79 -80l-181 100l-182 -100zM112 0v975h176v-975h-176z"/>
<glyph unicode="?" horiz-adv-x="399" d="M14 1170v156h156v-156h-156zM111 0v975h176v-975h-176zM229 1170v156h156v-156h-156z"/>
<glyph unicode="?" horiz-adv-x="765" d="M83 278v423q0 89 48 163q86 131 245 131q50 0 107 -21q-6 117 -132 228l-168 -97l-53 90l127 74q-54 29 -126 49l55 81q93 -21 178 -68l142 82l53 -91l-100 -57q104 -93 156.5 -212.5t52.5 -264.5v-510q0 -95 -48 -169q-85 -129 -253 -129q-144 0 -227 112 q-57 78 -57 186zM259 259q0 -45 30 -80q36 -43 88 -43q56 0 91 47q24 31 24 76v462q0 53 -39 87q-36 31 -80 31q-63 0 -95 -55q-19 -31 -19 -63v-462z"/>
<glyph unicode="?" horiz-adv-x="800" d="M112 975h176v-44q76 64 164 64q116 0 188 -87q57 -70 57 -156v-752h-176v721q0 45 -25 75q-35 43 -91 43q-60 0 -95 -48q-22 -31 -22 -70v-721h-176v975zM158 1162v29q0 69 27 102q37 44 90 44q42 0 89 -20l97 -39q16 -7 36 -7q47 0 50 66h96v-32q0 -57 -24 -88 q-41 -55 -109 -55q-46 0 -86 20l-81 39q-20 9 -42 9q-47 0 -47 -53q0 -4 1 -15h-97z"/>
<glyph unicode="?" d="M47 1369h172l247 -255h-162zM83 278v423q0 89 48 163q41 62 105 96.5t139 34.5q141 0 227 -107q66 -82 66 -187v-423q0 -95 -48 -169q-85 -129 -253 -129q-144 0 -227 112q-57 78 -57 186zM259 259q0 -45 30 -80q36 -43 88 -43q56 0 91 47q24 31 24 76v462q0 53 -39 87 q-36 31 -80 31q-63 0 -95 -55q-19 -31 -19 -63v-462z"/>
<glyph unicode="?" d="M83 278v423q0 89 48 163q41 62 105 96.5t139 34.5q141 0 227 -107q66 -82 66 -187v-423q0 -95 -48 -169q-85 -129 -253 -129q-144 0 -227 112q-57 78 -57 186zM259 259q0 -45 30 -80q36 -43 88 -43q56 0 91 47q24 31 24 76v462q0 53 -39 87q-36 31 -80 31q-63 0 -95 -55 q-19 -31 -19 -63v-462zM288 1114l246 255h173l-258 -255h-161z"/>
<glyph unicode="?" d="M83 278v423q0 89 48 163q41 62 105 96.5t139 34.5q141 0 227 -107q66 -82 66 -187v-423q0 -95 -48 -169q-85 -129 -253 -129q-144 0 -227 112q-57 78 -57 186zM117 1200l260 148l260 -146l-79 -80l-181 100l-182 -100zM259 259q0 -45 30 -80q36 -43 88 -43q56 0 91 47 q24 31 24 76v462q0 53 -39 87q-36 31 -80 31q-63 0 -95 -55q-19 -31 -19 -63v-462z"/>
<glyph unicode="?" d="M83 278v423q0 89 48 163q41 62 105 96.5t139 34.5q141 0 227 -107q66 -82 66 -187v-423q0 -95 -48 -169q-85 -129 -253 -129q-144 0 -227 112q-57 78 -57 186zM134 1162v29q0 69 27 102q37 44 90 44q42 0 89 -20l97 -39q16 -7 36 -7q47 0 50 66h96v-32q0 -57 -24 -88 q-41 -55 -109 -55q-46 0 -86 20l-81 39q-20 9 -42 9q-47 0 -47 -53q0 -4 1 -15h-97zM259 259q0 -45 30 -80q36 -43 88 -43q56 0 91 47q24 31 24 76v462q0 53 -39 87q-36 31 -80 31q-63 0 -95 -55q-19 -31 -19 -63v-462z"/>
<glyph unicode="?" horiz-adv-x="754" d="M86 278v423q0 89 48 163q41 62 105 96.5t139 34.5q141 0 227 -107q66 -82 66 -187v-423q0 -95 -48 -169q-85 -129 -253 -129q-144 0 -227 112q-57 78 -57 186zM126 1170v156h156v-156h-156zM262 259q0 -45 30 -80q36 -43 88 -43q56 0 91 47q24 31 24 76v462q0 53 -39 87 q-36 31 -80 31q-63 0 -95 -55q-19 -31 -19 -63v-462zM477 1170v156h156v-156h-156z"/>
<glyph unicode="?" horiz-adv-x="1524" d="M250 601v164h1024v-164h-1024zM667 212v189h189v-189h-189zM667 965v189h189v-189h-189z"/>
<glyph unicode="?" d="M83 278v423q0 89 48 163q86 131 244 131q79 0 154 -43l31 65l108 -54l-48 -100q47 -74 48 -162v-423q0 -95 -48 -169q-85 -129 -253 -129q-81 0 -150 40l-29 -59l-105 60l44 91q-43 72 -44 166zM259 387l199 416q-43 36 -84 36q-64 0 -96 -55q-19 -31 -19 -63v-334z M291 176q40 -40 85 -40q57 0 92 47q24 31 24 76v338z"/>
<glyph unicode="?" horiz-adv-x="800" d="M66 1369h172l247 -255h-162zM102 231v744h176v-719q0 -52 24 -80q34 -40 90 -40q62 0 97 49q22 31 22 71v719h176v-975h-176v42q-36 -24 -57 -35q-52 -27 -109 -27q-60 0 -114.5 26.5t-86.5 71.5q-42 60 -42 153z"/>
<glyph unicode="?" horiz-adv-x="837" d="M102 231v744h176v-719q0 -52 24 -80q34 -40 90 -40q62 0 97 49q22 31 22 71v719h176v-975h-176v42q-36 -24 -57 -35q-52 -27 -109 -27q-60 0 -114.5 26.5t-86.5 71.5q-42 60 -42 153zM307 1114l246 255h173l-258 -255h-161z"/>
<glyph unicode="?" horiz-adv-x="800" d="M102 231v744h176v-719q0 -52 24 -80q34 -40 90 -40q62 0 97 49q22 31 22 71v719h176v-975h-176v42q-36 -24 -57 -35q-52 -27 -109 -27q-60 0 -114.5 26.5t-86.5 71.5q-42 60 -42 153zM136 1200l260 148l260 -146l-79 -80l-181 100l-182 -100z"/>
<glyph unicode="?" horiz-adv-x="800" d="M102 231v744h176v-719q0 -52 24 -80q34 -40 90 -40q62 0 97 49q22 31 22 71v719h176v-975h-176v42q-36 -24 -57 -35q-52 -27 -109 -27q-60 0 -114.5 26.5t-86.5 71.5q-42 60 -42 153zM142 1170v156h156v-156h-156zM493 1170v156h156v-156h-156z"/>
<glyph unicode="?" horiz-adv-x="756" d="M53 982h188l130 -576l142 576h180l-322 -1375h-185l90 395zM285 1114l246 255h173l-258 -255h-161z"/>
<glyph unicode="?" horiz-adv-x="780" d="M112 -396v1761h176v-431q79 61 165 61q124 0 199 -101q45 -61 45 -151v-518q0 -88 -50 -151q-74 -93 -199 -93q-79 0 -160 57v-434h-176zM288 256q0 -41 26 -75q35 -44 90 -44q67 0 102 57q15 26 15 62v459q0 53 -35 90q-34 34 -82 34q-63 0 -100 -54q-16 -24 -16 -70 v-459z"/>
<glyph unicode="?" horiz-adv-x="746" d="M53 982h188l130 -576l142 576h180l-322 -1375h-185l90 395zM120 1170v156h156v-156h-156zM471 1170v156h156v-156h-156z"/>
<glyph unicode="?" horiz-adv-x="1270" d="M93 333v700q0 137 87 235q103 117 265 117q56 0 117 -20h655v-176h-422v-408h277v-176h-277v-429h422v-176h-658q-62 -20 -119 -20q-170 0 -272 126q-75 94 -75 227zM288 308q0 -58 33 -97q46 -55 121 -55q86 0 132 67q26 40 26 85v745q0 65 -46 110q-47 46 -109 46 q-86 0 -135 -74q-22 -35 -22 -82v-745z"/>
<glyph unicode="?" horiz-adv-x="1161" d="M83 278v423q0 90 48 163q41 62 105 96.5t139 34.5q120 0 209 -86q90 83 200 83q99 0 183 -62q111 -82 111 -234v-237h-409v-176q0 -68 31 -105q36 -42 89 -42q76 0 103 72q10 28 10 68v7h176q-2 -44 -4 -68q-10 -88 -87 -159q-83 -76 -202 -76q-117 0 -204 82 q-88 -82 -214 -82q-144 0 -227 112q-57 77 -57 186zM259 258q0 -44 30 -80q36 -42 89 -42q56 0 91 46q24 32 24 76v464q0 52 -39 86q-36 31 -80 31q-64 0 -96 -55q-19 -31 -19 -62v-464zM669 615h233v101q0 39 -24 72q-34 48 -91 48q-71 0 -105 -66q-13 -26 -13 -54v-101z "/>
<glyph unicode="?" horiz-adv-x="814" d="M29 1365h205l175 -538l168 538h209l-280 -886v-479h-195v479zM155 1560v156h156v-156h-156zM506 1560v156h156v-156h-156z"/>
<glyph unicode="?" horiz-adv-x="1024" d="M252 1200l260 148l260 -146l-79 -80l-181 100l-182 -100z"/>
<glyph unicode="?" horiz-adv-x="1024" d="M269 1162v29q0 69 27 102q37 44 90 44q42 0 89 -20l97 -39q16 -7 36 -7q47 0 50 66h96v-32q0 -57 -24 -88q-41 -55 -109 -55q-46 0 -86 20l-81 39q-20 9 -42 9q-47 0 -47 -53q0 -4 1 -15h-97z"/>
<glyph unicode="?" horiz-adv-x="1296" d="M216 553v179h864v-179h-864z"/>
<glyph unicode="?" horiz-adv-x="1426" d="M216 553v179h995v-179h-995z"/>
<glyph unicode="?" horiz-adv-x="380" d="M102 961v175l175 256v-431h-175z"/>
<glyph unicode="?" horiz-adv-x="380" d="M102 933v432h175v-175z"/>
<glyph unicode="?" horiz-adv-x="380" d="M102 175h175v-175l-175 -257v432z"/>
<glyph unicode="?" horiz-adv-x="671" d="M102 961v175l175 256v-431h-175zM393 961v175l175 256v-431h-175z"/>
<glyph unicode="?" horiz-adv-x="671" d="M102 933v432h175v-175zM393 933v432h175v-175z"/>
<glyph unicode="?" horiz-adv-x="671" d="M102 175h175v-175l-175 -257v432zM393 175h175v-175l-175 -257v432z"/>
<glyph unicode="?" horiz-adv-x="1365" d="M401 693q0 121 84 202q85 83 204 83q113 0 196 -83q84 -83 84 -201t-84 -201q-82 -83 -200 -83t-200 83q-84 83 -84 200z"/>
<glyph unicode="?" horiz-adv-x="1141" d="M102 0v176h176v-176h-176zM482 0v176h176v-176h-176zM862 0v176h176v-176h-176z"/>
<glyph unicode="?" horiz-adv-x="645" d="M127 590l389 390v-193l-195 -197l195 -194v-197z"/>
<glyph unicode="?" horiz-adv-x="645" d="M128 199v197l195 194l-195 197v193l389 -390z"/>
<glyph unicode="?" horiz-adv-x="955" d="M76 502v90h98v183h-98v91h98v161q1 135 88 235q105 123 262 123q129 0 231 -87q123 -104 122 -272h-197v22q0 57 -36 103q-46 59 -119 59q-90 0 -135 -80q-20 -37 -20 -82v-182h368l-46 -91h-322v-183h316l-46 -90h-270v-185q0 -62 36 -105q47 -56 118 -56q47 0 85 26 t57 70q13 30 14 83h197q0 -77 -21 -131q-36 -89 -106 -146q-94 -78 -228 -78q-166 0 -266 123q-81 99 -82 233v166h-98z"/>
<glyph unicode="?" horiz-adv-x="1247" d="M29 1251v114h449v-114h-160v-678h-134v678h-155zM541 573v792h158l138 -516l143 516h155v-792h-134v413l-110 -413h-123l-105 387v-387h-122z"/>
<glyph unicode="?" horiz-adv-x="975" d="M0 975h975v-975h-975v975z"/>
<glyph unicode="fi" horiz-adv-x="906" d="M82 813v156h88v203q0 61 44 126t132 67h2q87 0 159 -73l-77 -121q-15 27 -46 25q-39 -4 -38 -54v-173h125v-156h-125v-813h-176v813h-88zM619 0v975h176v-975h-176zM627 1170v156h156v-156h-156z"/>
<glyph unicode="fl" horiz-adv-x="862" d="M82 813v156h88v203q0 61 44 126t132 67h2q87 0 159 -73l-77 -121q-15 27 -46 25q-39 -4 -38 -54v-173h125v-156h-125v-813h-176v813h-88zM561 156v1209h176v-1158q1 -22 18 -37t42 -14h12v-156h-72q-77 0 -127 46q-49 47 -49 110z"/>
<glyph unicode="ffi" horiz-adv-x="1413" d="M82 813v156h88v203q0 61 44 126t132 67h2q87 0 159 -73l-77 -121q-15 27 -46 25q-39 -4 -38 -54v-173h125v-156h-125v-813h-176v813h-88zM589 813v156h88v203q0 61 44 126t132 67h2q87 0 159 -73l-77 -121q-15 27 -46 25q-39 -4 -38 -54v-173h125v-156h-125v-813h-176 v813h-88zM1126 0v975h176v-975h-176zM1134 1170v156h156v-156h-156z"/>
<glyph unicode="ffl" horiz-adv-x="1369" d="M82 813v156h88v203q0 61 44 126t132 67h2q87 0 159 -73l-77 -121q-15 27 -46 25q-39 -4 -38 -54v-173h125v-156h-125v-813h-176v813h-88zM589 813v156h88v203q0 61 44 126t132 67h2q87 0 159 -73l-77 -121q-15 27 -46 25q-39 -4 -38 -54v-173h125v-156h-125v-813h-176 v813h-88zM1068 156v1209h176v-1158q1 -22 18 -37t42 -14h12v-156h-72q-77 0 -127 46q-49 47 -49 110z"/>
</font>
</defs>
</svg>
